#TITLE:IN THE MOOD;
#SUBTITLE:;
#ARTIST:Brian Setzer;
#TITLETRANSLIT:;
#SUBTITLETRANSLIT:;
#ARTISTTRANSLIT:;
#CREDIT:;
#BANNER:InTheMood-banner.png;
#BACKGROUND:Inthemood-bg.png;
#LYRICSPATH:;
#CDTITLE:;
#MUSIC:In The Mood.mp3;
#MUSICLENGTH:97.097;
#OFFSET:0.420;
#SAMPLESTART:43.385;
#SAMPLELENGTH:12.000;
#SELECTABLE:YES;
#BPMS:0.000=179.900;
#STOPS:;
#BGCHANGES:;
#FIRSTBEAT:20.000;

#LASTBEAT:290.000;

#SONGFILENAME:Songs/ERICth MIX 2nd Style/In The Mood/inthemood.sm;

#HASMUSIC:1;

#HASBANNER:1;


//---------------dance-single - MANIAC----------------
#NOTES:
     dance-single:
     MANIAC:
     hard:
     9:
     0.578,0.597,0.257,0.072,0.726,361.000,25.000,7.000,0.000,0.000:

0000
0000
0000
0000
,
0000
0000
0000
0000
,
0000
0000
0000
0000
,
0000
0000
0000
0000
,
0000
0000
0000
0000
,
1001
0000
0000
0000
,
0000
0000
0000
0000
0000
0000
0000
0000
1001
0000
0000
0000
,
1001
0000
0000
0000
,
0000
0000
0000
0000
0000
0000
0000
0000
0000
0000
0000
0001
,
1000
0000
0100
1000
0000
0100
1000
0000
0100
1000
0000
0100
,
1000
0000
0100
1000
0000
1000
0000
0000
1001
0000
0000
1000
,
0001
0000
1000
0001
0000
1000
0001
0000
1000
0001
0000
1000
,
0001
0000
1000
0001
0000
0001
0000
0000
1001
0000
0000
0001
,
0100
0000
0001
0100
0000
0001
0100
0000
0001
0100
0000
0001
,
0100
0000
0001
0100
0000
0001
0000
0000
1001
0000
0000
0100
,
0010
0000
0100
0010
0000
0100
0010
0000
0100
0010
0000
0100
,
0010
0000
0100
0010
0000
0100
0000
0000
1001
0000
0000
1000
,
0010
0000
1000
0010
0000
1000
0010
0000
1000
0010
0000
1000
,
0010
0000
1000
0010
0000
1000
0000
0000
1001
0000
0000
0000
,
1000
0000
0010
0001
0000
0001
0100
0000
0100
0010
0000
0010
,
1000
0000
1000
0000
0000
1000
0000
0000
0000
0000
0000
0000
,
1000
0000
1000
0010
0000
0010
1000
0000
1000
0010
0000
0010
,
1000
0000
1000
0010
0000
0010
0000
0000
0110
0000
0000
0000
,
0010
0000
0010
0001
0000
0001
0010
0000
0010
0001
0000
0001
,
0010
0000
0010
0001
0000
0001
0000
0000
0110
0000
0000
0000
,
1000
0000
1000
0001
0000
0001
1000
0000
1000
0001
0000
0001
,
1000
0000
1000
0001
0000
0001
0000
0000
0110
0000
0000
0000
,
1000
0000
1000
0100
0000
0100
0010
0000
0010
0001
0000
0001
,
1000
0000
1000
0100
0000
0100
0000
0000
0110
0000
0000
0000
,
1000
0000
1000
0010
0000
0010
0100
0000
0100
0001
0000
0001
,
1000
0000
1000
0100
0000
0100
0000
0000
0110
0000
0000
0000
,
1000
0000
0001
1000
0000
0001
1000
0000
0001
1000
0000
0001
,
1000
0000
0001
0000
0000
1000
0000
0000
0000
0000
0000
0000
,
1000
0100
0010
0001
,
1000
0100
0010
0001
,
0100
0001
1000
0010
,
0100
0001
1000
0010
,
1000
0001
1000
0001
,
0100
0010
0100
0010
,
1000
0000
0001
1000
0000
0000
1000
0000
0010
1000
0000
0000
,
0100
0000
0000
0010
1000
0000
0000
0001
0000
0000
0000
0000
,
1000
0100
0010
0001
,
0100
0001
1000
0010
,
0100
0001
1000
0010
,
1000
0001
1000
0001
,
0100
0010
0100
0010
,
1000
1000
1000
1000
,
2200
0000
0000
3300
0022
0000
0000
0033
,
2002
0000
0000
0000
0000
0000
0000
3003
,
1000
0100
1000
0010
0100
0001
0100
0010
,
0100
1000
0100
0001
0100
0010
0100
0000
,
1000
0001
0100
0010
0100
0001
1000
0001
,
1000
0010
1000
0010
0100
0010
0000
0000
,
1000
0001
1000
1000
0001
1000
1000
0001
,
1000
1000
0001
0000
1000
0001
1000
0000
,
1001
0000
1001
0000
,
1001
0000
1001
0000
,
1000
0000
0100
1000
0000
0100
1000
0000
0100
1000
0000
0100
,
1000
0000
0100
1000
0000
1000
0000
0000
1001
0000
0000
1000
,
0001
0000
1000
0001
0000
1000
0001
0000
1000
0001
0000
1000
,
0001
0000
1000
0001
0000
0001
0000
0000
1001
0000
0000
0001
,
0100
0000
0001
0100
0000
0001
0100
0000
0001
0100
0000
0001
,
0100
0000
0001
0100
0000
0001
0000
0000
1001
0000
0000
0100
,
0010
0000
0100
0010
0000
0100
0010
0000
0100
0010
0000
0100
,
0010
0000
0100
0010
0000
0100
0000
0000
1001
0000
0000
1000
,
0010
0000
1000
0010
0000
1000
0010
0000
1000
0010
0000
1000
,
0010
0000
1000
0010
0000
1000
0000
0000
1001
0000
0000
0000
,
1000
0000
0010
0001
0000
0001
0100
0000
0100
0010
0000
0010
,
1000
0000
1000
0000
0000
1000
0000
0000
0000
0000
0000
0000
,
1000
0001
1000
0010
,
1000
0000
0010
0000
0000
2000
0000
0000
0000
0000
3000
0000
,
0001
0000
0000
0000
0000
0000
0001
0000
0000
0000
0000
0001
,
1000
0000
0000
0001
0000
1000
0000
0000
0000
0000
0000
0000;

//---------------dance-single - ANOTHER----------------
#NOTES:
     dance-single:
     ANOTHER:
     medium:
     5:
     0.349,0.411,0.134,0.062,0.000,218.000,13.000,6.000,0.000,0.000:

0000
0000
0000
0000
,
0000
0000
0000
0000
,
0000
0000
0000
0000
,
0000
0000
0000
0000
,
0000
0000
0000
0000
,
0110
0000
0000
0000
,
0110
0000
0000
0000
,
0110
0000
0000
0000
,
0110
0000
0000
0000
,
1000
0100
1000
0100
,
1000
0100
1000
0100
1000
0000
0000
0000
,
0010
0001
0010
0001
,
0010
0001
0010
0001
0010
0000
0000
0000
,
0001
1000
0100
0001
,
0100
1000
0100
0001
0100
0000
0000
0000
,
0001
1000
0010
1000
,
0001
0010
0001
1000
0001
0000
0000
0000
,
0100
1000
0010
0100
,
0001
1000
0001
0100
0001
0000
0000
0000
,
1000
0000
0010
0000
,
1000
0001
1000
0000
,
0100
0010
0001
1000
,
0010
1000
0100
1000
0010
0000
0000
0000
,
0001
0010
1000
0100
,
0010
0001
0100
0001
0010
0000
0000
0000
,
0001
1000
0010
0100
,
0001
0100
1000
0100
0001
0000
0000
0000
,
0001
0010
0100
0010
,
1000
0010
0001
0010
1000
0000
0000
0000
,
0001
0010
0100
1000
,
0010
1000
0010
1000
0010
0000
0000
0000
,
1001
0000
1001
0000
,
0101
0101
0101
0000
,
0001
1000
0100
0010
,
0001
0000
0000
0000
,
0010
1000
0100
0010
,
0002
0000
0000
0003
,
0010
1000
0100
0010
,
0200
0000
0000
0300
,
1000
0000
0001
0000
,
1001
0000
0000
0000
,
1001
0100
1000
0010
,
0100
0000
0000
0000
,
0001
1000
0010
0100
,
0010
0000
0000
0000
,
1000
0001
0100
0010
,
0002
0000
0000
0000
,
0100
0000
0100
0000
,
0100
0000
0000
0003
0101
0000
0000
0000
,
0001
1000
0100
0000
,
0001
0100
1000
0000
,
1000
0010
0001
0000
,
0001
0100
1000
0000
,
0010
0001
1000
0000
,
0001
0010
0001
0000
,
1000
0000
0001
0000
,
0100
0001
0100
0000
,
0010
0000
1000
0000
0010
0000
1000
0010
,
1000
0010
1000
0001
0000
0000
0000
0000
,
0010
1000
0001
1000
,
0100
1000
0010
1000
0000
0000
0000
0000
,
0001
1000
0010
0100
,
0001
0010
0001
0010
0000
0000
0000
0000
,
0001
1000
0100
0010
,
0100
0010
0001
0010
0000
0000
0000
0000
,
0010
0000
1000
0000
0100
0010
0100
1000
,
0100
0010
0100
1000
0000
0000
0000
0000
,
0001
0000
1000
0000
,
0001
0000
1000
0000
,
2000
0000
0000
0000
3100
0200
0000
0000
,
0010
0300
0000
0000
0000
0000
0020
0000
0000
0000
0000
0000
0000
0000
0000
0000
0000
0000
0001
0000
0000
0000
0000
0000
0000
0000
0000
0000
0000
0000
0030
0000
0000
0000
0000
0000
0000
0000
0000
0000
0000
0000
0000
0000
0000
0000
0000
0000
,
0000
0000
0000
0000
,
0000
0000
0011
0000;

//---------------dance-single - BASIC----------------
#NOTES:
     dance-single:
     BASIC:
     easy:
     4:
     0.250,0.373,0.103,0.031,0.000,157.000,10.000,3.000,0.000,0.000:

0000
0000
0000
0000
,
0000
0000
0000
0000
,
0000
0000
0000
0000
,
0000
0000
0000
0000
,
0000
0000
0000
0000
,
0100
0000
0000
0100
,
0000
0000
0000
0000
,
0100
0000
0100
0000
,
0000
0000
0000
0000
,
0010
0000
1000
0000
,
0001
1000
0001
0000
,
0010
0000
0100
0000
,
0001
1000
0001
0000
,
0010
0000
0100
0000
,
0001
1000
0001
0000
,
0010
0000
0100
0000
,
0001
1000
0001
0000
,
0010
0000
0100
0000
,
0001
1000
0001
0000
,
1000
0000
0010
0000
,
0001
0000
0100
0000
,
0010
0100
0010
0000
,
0010
0100
0010
0000
,
0100
0010
0100
0000
,
0000
0000
0000
0000
,
0001
1000
0001
0000
,
1000
0001
1000
0000
,
0200
0000
0000
0000
,
0010
0010
0010
0300
,
0001
0000
0100
0000
,
0010
1000
0100
0000
,
0001
0000
0001
0000
,
0100
1000
0000
0000
,
1000
0000
0010
0000
,
0010
0000
0001
0000
,
0100
0000
0001
0000
,
0010
0000
1010
0000
,
0100
0000
0001
0000
,
0011
0000
0010
0000
,
1000
0000
1000
0000
,
0002
0000
0000
0000
,
1003
0000
0010
0000
,
0100
0000
0010
0000
,
0001
0000
0010
0000
,
1000
0000
0100
0000
,
0001
0000
0100
0000
,
0002
0000
0000
0000
,
0010
0000
0010
0000
,
0010
0010
0010
0003
,
0010
1000
0100
0000
,
0001
0000
0001
0000
,
0010
1000
0100
0000
,
0001
0000
0001
0000
,
0010
1000
0100
0000
,
0001
0000
0001
0000
,
0010
1000
0010
1000
,
0010
1000
0010
0000
,
0010
1000
0100
0001
,
0010
1000
0100
0000
,
0010
0001
0100
1000
,
0010
0001
0100
0000
,
0010
1000
0100
0001
,
0010
1000
0100
0000
,
0001
0100
1000
0010
,
0001
0100
1000
0000
,
0010
0000
0010
0000
,
1000
0010
1000
0000
,
0001
0000
0001
0000
,
0000
0000
0000
0000
,
1001
0000
1001
0000
,
1001
0000
1001
0000
,
1001
0000
1001
0000
,
1001
0000
1001
0000;
